Menu

Search


Vote for us

Top Partner

Links

Vampire Academy
Releasedatum: 26.04.2014
Vampire.Academy.2014.BRRip.Xvid.AC3-Team.V

Genre: Action, Fantasy, Komödie
Sprache(n): Englisch
Untertitel:
Audiostream: Dolby Digital 5.1
Videocodec: MPEG-4 Xvid
Videostream: BD-Rip
Laufzeit: 104 Minuten
Größe: 1526 MB
Freigegeben ab:
Imdb: Imdb-Link



Vote Raidrush.wsVote Woz.to


Lade kostenlos Vampire Academy 2014 BRRip Xvid AC3-Team V mit Fullspeed!

Rose Hathaway is a Dhampir, half human/vampire, guardians of the Moroi, peaceful, mortal vampires living discretely within our world. Her legacy is to protect the Moroi from bloodthirsty, immortal Vampires, the Strigoi. This is her story.

Nfo-File:
http://www.imdb.com/title/tt1686821/

Sample Included: Yes

General

Complete name                            : Vampire.Academy.2014.BRRip.Xvid.AC3-Team.V.avi
Format                                   : AVI
Format/Info                              : Audio Video Interleave
File size                                : 1.48 GiB
Duration                                 : 1h 44mn
Overall bit rate                         : 2 031 Kbps

Video

ID                                       : 0
Format                                   : MPEG-4 Visual
Format profile                           : Advanced Simple@L5
Format settings, BVOP                    : 2
Format settings, QPel                    : Yes
Format settings, GMC                     : No warppoints
Format settings, Matrix                  : Default (MPEG)
Codec ID                                 : XVID
Codec ID/Hint                            : XviD
Duration                                 : 1h 44mn
Bit rate                                 : 1 640 Kbps
Width                                    : 720 pixels
Height                                   : 304 pixels
Display aspect ratio                     : 2.35:1
Frame rate                               : 23.976 fps
Color space                              : YUV
Chroma subsampling                       : 4:2:0
Bit depth                                : 8 bits
Scan type                                : Progressive
Compression mode                         : Lossy
Bits/(Pixel*Frame)                       : 0.312
Stream size                              : 1.20 GiB (81%)
Writing library                          : XviD 1.2.1 (UTC 2008-12-04)

Audio

ID                                       : 1
Format                                   : AC-3
Format/Info                              : Audio Coding 3
Mode extension                           : CM (complete main)
Format settings, Endianness              : Big
Codec ID                                 : 2000
Duration                                 : 1h 44mn
Bit rate mode                            : Constant
Bit rate                                 : 384 Kbps
Channel(s)                               : 6 channels
Channel positions                        : Front: L C R, Side: L R, LFE
Sampling rate                            : 48.0 KHz
Bit depth                                : 16 bits
Compression mode                         : Lossy
Stream size                              : 287 MiB (19%)
Alignment                                : Aligned on interleaves
Interleave, duration                     : 64 ms (1.53 video frames)
Interleave, preload duration             : 192 ms
http://www.imdb.com/title/tt1686821/ Sample Included: Yes General Complete name : Vampire.Academy.2014.BRRip.Xvid.AC3-Team.V.avi Format : AVI Format/Info : Audio Video Interleave File size : 1.48 GiB Duration : 1h 44mn Overall bit rate : 2 031 Kbps Video ID : 0 Format : MPEG-4 Visual Format profile : Advanced Simple@L5 Format settings, BVOP : 2 Format settings, QPel : Yes Format settings, GMC : No warppoints Format settings, Matrix : Default (MPEG) Codec ID : XVID Codec ID/Hint : XviD Duration : 1h 44mn Bit rate : 1 640 Kbps Width : 720 pixels Height : 304 pixels Display aspect ratio : 2.35:1 Frame rate : 23.976 fps Color space : YUV Chroma subsampling : 4:2:0 Bit depth : 8 bits Scan type : Progressive Compression mode : Lossy Bits/(Pixel*Frame) : 0.312 Stream size : 1.20 GiB (81%) Writing library : XviD 1.2.1 (UTC 2008-12-04) Audio ID : 1 Format : AC-3 Format/Info : Audio Coding 3 Mode extension : CM (complete main) Format settings, Endianness : Big Codec ID : 2000 Duration : 1h 44mn Bit rate mode : Constant Bit rate : 384 Kbps Channel(s) : 6 channels Channel positions : Front: L C R, Side: L R, LFE Sampling rate : 48.0 KHz Bit depth : 16 bits Compression mode : Lossy Stream size : 287 MiB (19%) Alignment : Aligned on interleaves Interleave, duration : 64 ms (1.53 video frames) Interleave, preload duration : 192 ms